&title=天ノ弱 [DX]
&wholebpm=200
&artist=164
&des=シチミヘルツ
&shortid=10188
&genre=niconicoボーカロイド
&cabinet=DX
&version=maimai DX Splash
&chartconverter=Neskol
&lv_2=3
&des_2=
&lv_3=7
&des_3=
&lv_4=10
&des_4=小鳥遊さん
&lv_5=12+
&des_5=シチミヘルツ
&des_6=
&inote_2=
(200){1},
{1},
{1},
{1},
{1},
{1},
{1},
{1},
{1},
{1},
{1}4,
{1}4,
{1}5,
{1}5,
{1}4,
{1}4,
{1}5,
{1}4x/5x,
{1}3,
{1}3,
{1}2,
{1}2,
{1}1,
{1}1,
{1}8,
{1}8x,
{1}7,
{1}7,
{1}6,
{1}6,
{1}5,
{1}5,
{1}4,
{1}4x/5x,
{1}5h[1:1],
{1},
{1}6h[1:1],
{1},
{1}7h[1:1],
{1},
{1}8,
{1}1/8,
{1}1h[1:1],
{1},
{1}2h[1:1],
{1},
{1}3h[1:1],
{1},
{1}4,
{1}4b/5b,
{1}E4,
{2},E5,
{1},
{1}E6,
(205.001){2},C1f,
{1},
{2},1x,
{2}1,1/8,
{2},7,
{2}7,7/8,
{2},6,
{2}6,5/6,
{2},4,
{2}4,4x/5x,
{2},3,
{2}3,3/4,
{2},2,
{2}2,1/2,
(201){2},1h[1:1]/8h[1:1],
{1},
{2},1x/8x,
{2},1b/8b,
{2},(205.001)1,
{2}1,2,
{2}2,3,
{2}3,3/4,
{2},(204)5,
{2}5,6,
{2}6,7,
{2}7,1b/8b,
{2},7,
{2}7,6,
{2}6,5,
{2}5,4/5,
{2},(203)3h[1:1]/4h[1:1],
{1},
{2},5h[1:1]/6h[1:1],
{1},
{2},(200)7-3[4:5],
{1},
{1},
{2},(201)2,
{2},2-6[4:5],
{1},
{1},
{2},8x,
{2},(203)8,
{2}8,7,
{2},6,
{2}6,5,
{2},(202)4,
{2}4,3,
{2},2,
{2}2,1/8,
{2},1-4[4:5]/8-5[4:5],
{1},
{1},
{1},
{1},
E
&inote_3=
(200){1},
{1},
{1}6xh[1:1],
{1}5h[1:1],
{1}4h[1:1],
{1}3,
{1}2xh[1:1],
{1}1h[1:1],
{1}8h[1:1],
{1}7,
{2}6,5/6,
{2}3,3/4,
{2}6,5/6,
{2}4,3/5,
{2}2,1/2,
{2}7,7/8,
{2}2,1/2,
{2}8,2/7,
{4}3,3,4,,
{4}6,6,5,,
{4}3,3,4,4,
{4}5,5,4/6,,
{4}7,7,8,,
{4}2,2,1,,
{4}7,7,8,8,
{4}1,1,2/7,,
{4}6,6,5/6,,
{4}3,3,3/4,,
{4}2,2,1,1,
{4}8,8,1/7,,
{4}2,2,1/2,,
{4}7,7,7/8,,
{4}6,6,5,5,
{4}4x/5x,4x/5x,3b/6b,,
{2}2h[2:1],1,
{2}7h[2:1],8,
{2}2h[2:1],1,
{2}7h[4:1]/8h[4:1],7/8,
{2}6h[2:1],5,
{2}3h[2:1],4,
{2}6h[2:1],5,
{2}4h[4:1]/5h[4:1],4/5,
{2}7,7/8,
{2}2,1/2,
{2}7,7/8,
{4}1,1,2/8,,
{2}3,3/4,
{2}6,5/6,
{2}3,3/4,
{2}4x/5x,3x/6x,
{1}2>6[4:3],
{2},7<3[4:3],
{1},
{1}2>6[0.29999999999999716##0.9000000000000057],
(205.001){2},7,
{4}7/8,,1/8,1/8,
{4}1x/8x,,2b,2,
{4}3,3,3/4,3/4,
{4}2/5,,6,6,
{4}7,7,7/8,7/8,
{4}1/6,,2h[2:1],1,
{4}1,,7h[2:1],8,
{4}8,,1,1,
{4}8,8,1/8,1/8,
{4}2x/7x,,6b,6,
{4}7,7,7/8,7/8,
{4}1/6,,2,2,
{4}3,3,4x/5x,,
(201){2}3x/6x,2xV41[8:9]/7xV58[8:9],
{1},
{2},7/8,
{4}1/2,,1/8,1/8,
{4}2x/7x,,(205.001)3b,3,
{4}3/4,3/4,2,1,
{4}2/8,,7,7,
{4}7/8,7/8,6,5,
{4}3/6,,(204)2h[2:1],1,
{4}1,,7h[2:1],8,
{4}8,,1,1,
{4}8,8,1x/8x,1x/8x,
{4}2/7,,7,7,
{4}7/8,7/8,6,5,
{4}4/6,,3,3,
{4}2,2,1x/8x,,
{2}2x/7x,(203)3xV14[8:9]/6xV85[8:9],
{1},
{2},4/5,
{2}3/6,2h[2:1]/7h[2:1],
{2},(200)B2,
{2}B3,B4,
{2},B7,
{2}B6,(201)B5,
{2},B2,
{2}B3,B4,
{2}B5,B6,
{2}B7,C1,
{2},(203)B2,
{2}B3,B4/E4,
{2},B7,
{2}B6,B5/E6,
{2},(202)B4,
{2}B3,B2,
{2}B1,B8,
{2}B7,B3/B6,
{2},4x/5x,
{2}4x/5x,3x/6x,
{1}3x/6x,
{1},
{1},
{1},
E
&inote_4=
(200){1},
{1},
{8}3h[8:3],,,5h[8:3],,,4,,
{4}6,6,,4/5,
{8}3/6h[8:3],,,5h[8:3],,,4,,
{4}3,3,3/4,,
{8}6h[8:3],,,4h[8:3],,,5,,
{4}3,3,,4/5,
{8}3h[8:3]/6,,,4h[8:3],,,5,,
{4}6,6,5/6,,
{8}3,,4,,5,5,4,,
{8}3,3,4,,3/5,,4,,
{8}6,,5,,4,4,5,,
{8}6,6,5,,4/6,,,,
{8}3/5,,4,,6,6,5,,
{8}3,3,4,,5,,4/6,,
{4}7h[4:1],5,2h[4:1],4,
{4}7h[4:1],5h[4:1],4h[4:1],2,
{4}1b/8b,7-4[4:1],3,2,
{8}1,1,4,,2,,1/8,,
{4}6,5/7,3,2/4,
{8}7,7,8,,1/6,,,,
{4}4/5,2-5[4:1],6,7,
{8}8,8,5,,7,,1/8,,
{4}3,2/4,6,5/7,
{8}2,2,1,,3/8,,,,
{4}5/6,4/7-4[4:1],3,2,
{8}1,1,4,,2,,3/8,,
{4}7,5/6,4,3/4,
{8}2,2,1,,4/8,,,,
{4}3/4,2-5[4:1]/5,6,7,
{8}8,8,5,,7,,1/6,,
{8}2x,2,,8x,8,,6x,6,
{8},4x,4,,2b/7b,,,,
{4}3h[2:1],,4,4,
{4}B5,B6,E5/E7,,
{4}2h[2:1],,4,4,
{4}B7,B8,E1/E7,,
{4}6h[2:1],,5,5,
{4}B4,B3,E3/E5,,
{4}7h[2:1],,5,5,
{4}B2,B1,E1/E3,,
{4}3h[2:1],,4,5,
{4}B7,B6,E6/E8,,
{4}2h[2:1],,3,4,
{4}B1,B2,E1/E3,,
{4}6h[2:1],,5,4,
{4}B2,B3,E2/E4,,
{4}7h[2:1],,6,5,
{6}4x,4x,4x,5x,5x,5x,
{4}3x<6[2:1],,7,7>2[2:1],
{4},3,3<6[2:1],,
{4}7,7,1/8,2/7,
{8}3h[4:1]/5h[4:1],,,4h[4:1]/6h[4:1],,,2h[4:1]/5h[4:1],,
(205.001){8},4h[4:1]/7h[4:1],,,2h[4:1]/8,,4h[4:1],,
{4}6h[4:1],8,C1f,,
{8}7/8,,1/6,,2b/5b,,7-4[4:1],7,
{8},3,3,,2/5,,1,,
{8}7,7,8,,1/5,,2-5[4:1],2,
{8},6,6,,4b/7b,,,,
{8}1,1,8,8,2-6[4:1],,7,,
{4}8-4[4:1],1,3-8[4:1],7,
{4}5-1[4:1],2,3,4/5,
{4}6/7,1/8,2b/7b,,
{8}3/4,,2/5,,1b/6b,,7-4[4:1],7,
{8},3,3,,2/5,,1,,
{8}7,7,8,,1/5,,2-5[4:1],2,
{8},6,6,,8<5[0.2926814991146358##0.29268149911465],,,,
(201){2}1>4[4:1],8pp4[4:3]*qq4[4:3],
{1},
{8}2h[2:1],,,,4h[8:3],,,5h[8:3],
{4},6,2b/7b,,
{8}3/4,,5/6,,(205.001)1/8,,7-3[4:1],7,
{8},1,1,,2/4-7[4:1],,1,,
{8}8,8,6,,1/5,,2>5[4:1],2,
{8},6,6,,4b/7b,,,,
{8}1,1,8,8,(204)2>5[4:1],,6,,
{4}8<5[4:1],4,1>4[4:1],5,
{4}6<1[4:1],5,2,3/4,
{4}5/6,7/8,1b/6b,,
{8}5/7,,2/4,,1/8,,2-6[4:1],2,
{8},8,8,,5-2[4:1]/7,,8,,
{8}1,1,3,,4/8,,7<4[4:1],7,
{8},3,3,,1>4[8:1]/5,,,,
{2}8<5[8:1],(203)1pp5[4:3]*qq5[4:3],
{1},
{2}7h[1:1],5h[2:1],
{4},4>6[2:1],,,
{8}C1f,,,,(200)2,2,1,,
{4}3/8,7,6,2/4,
{8}3,,5/6,,7,7,8,,
{4}1/6,2,(201)3<6[4:1],,
{2}7>2[4:1],4w8[4:3],
{1},
{8}4/6,,3/5,,1x,1h[4:1],,7x,
{8}7h[4:1],,5x,5h[4:1],,3x,3h[4:1],,
{8}2b,,,,(203)6,6,5,,
{4}4/7,3,2,6/8,
{8}7,,1/2,,3,3,4,,
{4}2/5,1-4[4:1]/6-3[4:1],,,
{8}7b/8b,,,,(202)3,3,4,,
{4}2/5,6,7,1/3,
{8}2,,7/8,,1x,1h[4:1],,3x,
{8}3h[4:1],,5x,5h[4:1],,7x,7,,
{2}1b>4[8:1]/8b<5[8:1],C1xh[1:2]/B2/B3/B6/B7,
{1},
{1},
{1},
{1},
E
&inote_5=
(200){1},
{1},
{8}4/6h[8:3],,,5h[8:3],,,4h[4:1],,
{4}3,3,2,3,
{8}3h[8:3]/5,,,4h[8:3],,,5h[4:1],,
{4}6,7,5/6,6,
{8}4/7h[8:3],,,5h[8:3],,,4h[4:1],,
{4}2,2,3/4,3,
{8}2h[8:3]/5,,,4h[8:3],,,5h[4:1],,
{4}7,7,3/7,,
{8}6,6,5/7,,6,6,5/7,,
{8}6,5,7,5,6,5,4/7,,
{8}3,3,2/4,,3,3,2/4,,
{8}3,4,2,4,3,4,2/5,,
{8}6,6,5/7,,6,6,5/7,,
{8}6,5,7,5,6,5,4/7,,
{8}7,8,1/6,,2,1,3/8,,
{4}1pp1[4:1]*qq1[4:1],,,3b/7b,
{8}2-6[8:1],2,8-5[8:1],,3x,,1,1h[4:1],
{8},3,3h[4:1],,5-1[8:1],,8x,,
{8}7-3[8:1],7,1-4[8:1],,6x,,8,8h[4:1],
{8},6,6h[4:1],,4-8[8:1],,1x,,
{8}2-6[8:1],2,8-5[8:1],,3x,,1,1h[4:1],
{8},3,3h[4:1],,5,,3x/8x,,
{8}2/4,3,,5/7,6,,1/4,2,
{8},4/8,7,,2-6[8:1]/6,,,,
{8}8>3[8:1],8,4-1[8:1],,5x,,6,6h[4:1],
{8},7,7h[4:1],,8-4[8:1],,2x,,
{8}1<6[8:1],1,5-8[8:1],,4x,,3,3h[4:1],
{8},2,2h[4:1],,1-5[8:1],,7x,,
{8}8>3[8:1],8,4-1[8:1],,5x,,6,6h[4:1],
{8},7,7-2[8:1]*-4[8:1],,,,1x/5x,,
{8}2/4,3,,5/7,6,,2/4,3,
{16},,6,5,6,,1,,2b/7b,,,,5/6,,,,
{8}4/7h[4:1],,5,5h[4:1],,4,4h[4:1],,
{4}2,2-4[8:1]/4,5-1[8:1],3x,
{8}2h[4:1],,4,4h[4:1],,5,5-3[8:1],,
{4}7-5[8:1],2x-5[8:1],6x,,
{8}2h[4:1]/5,,4,4h[4:1],,5,5h[4:1],,
{4}7,5/7-5[8:1],4-8[8:1],6x,
{8}7h[4:1],,5,5h[4:1],,4,4-6[8:1],,
{4}2-4[8:1],7x-4[8:1],3x,,
{8}4/7h[4:1],,1,1h[4:1],,4,4h[4:1],,
{4}5,5/7-5[8:1],4-8[8:1],6x,
{8}7h[4:1],,1,1h[4:1],,4,4-6[8:1],,
{12}2-4[8:1],,,7,,,7,5,6,2,4,3,
{8}8h[4:1],,6,6h[4:1],,4,4h[4:1],,
{4}3,2-4[8:1]/4,5-1[8:1],3x,
{8}2h[4:1],,8,8h[4:1],,6,6,,
{6}5h[6:1]/7,4h[6:1],3h[6:1],2h[6:1],1h[6:1],8,
{12}2b/7b,,,6,,6,5,,5,4,,4,
{12}3,,3,2,,2,1h[4:1],,,3,,3,
{12}4,,4,5,,5,6,,6,8b,,,
{8}5/6,,2,3/4,,7,5/6,,
(205.001){8}1,2/4,,8,5/7>2[4:1],,2>5[4:1],,
{4}5<8[4:1],8-4[8:1],1b,,
{8}2v5[8:1]/8v5[8:1],,,,1V37[4:1]/7,,5,5-2[8:1],
{8},1,1-5[8:1],,8b,,7-3[8:1],,
{8}1-4[8:1],,6,,2/8V62[4:1],,4,4-7[8:1],
{8},8x,8x-3[8:1]*-5[8:1],,8b,,2x/6x,,
{8}4/8,7,2/6,3,4>1[8:1]/5,,B7/B8,,
{4}5<8[8:1],E1,4>1[8:1],B1/B2,
{4}5<8[8:1],E1,3x-6[8:1],3x/7x-2[8:1],
{4}3x-6[8:1]/7x,3x/8x>3[8:1],4x/8b,,
{8}3-5[8:1]/7-1[8:1],,,,2/8V62[4:1],,4,4-7[8:1],
{8},8,8-4[8:1],,1b,,2-6[8:1],,
{8}8-5[8:1],,3,,1V37[4:1]/7,,5,5-2[8:1],
{8},1x,1x>5[16:3],,8b,,8<4[0.29268149911465##0.2238805970149258],,
(201){4}1b,1>8[1:1],C1f,,
{1},
{8}3h[2:1],,,,5h[8:3],,,6h[8:3],
{4},4-8[8:1],,,
{8}2-7[8:1]/6-3[8:1],,,,(205.001)1V37[4:1]/5,,8,8-4[8:1],
{8},6,6-2[8:1],,8b,,7-3[8:1],,
{8}1-5[8:1],,6,,3/8V62[4:1],,1,1-5[8:1],
{8},4x,4x-1[8:1]*-7[8:1],,4b,,2x/6x,,
{8}4/8,7,2/6,3,(204)4>1[8:1]/5,,B7/B8/4x,,
{4}5<8[8:1],E1/5x,4>1[8:1],B1/B2/4x,
{4}5<8[8:1],E1/5x,3x-6[8:1],3x/7x-2[8:1],
{4}3x-6[8:1]/7x,3x/8x>3[8:1],C1f/8b,,
{8}2-5[8:1]/6-1[8:1],,,,4/8V62[4:1],,1,1-5[8:1],
{8},3,3-7[8:1],,1b,,2-6[8:1],,
{8}8-4[8:1],,3,,1V37[4:1]/6,,8,8-4[8:1],
{8},5x,5x>8[16:3],,8b,,5<1[16:3],,
{4}1b,4>5[0.2941176470588118##1.1822660098522135],(203)C1f,,
{1},
{2}7h[2:1],1h[2:1],
{4}2,2h[4:3],,,
{4}4h[2:1],3>4[0.2955665024630605##1.5],(200),,
{1},
{2},3>8[4:1],
{2}5>2[0.29999999999999716##0.29999999999999716],(201)7>2[4:1],
{2}5<8[4:1],3<2[4:5],
{1},
{8},,,,5/6,5/6,,3/4,
{8}3/4,,5/7,5/7,,2/4,2/4,,
{8}7/8,1/6,2/5,,(203)4>2[8:1],4,8-4[8:1],,
{8},,1,1h[4:1],,3,3h[4:1],,
{8}6-2[8:1],6,8x,,5<7[8:1],5,1-5[8:1],,
{8},,8,8h[4:1],,6,6h[4:1],,
{8}4-8[8:1],4,1x,,(202)2>4[8:1],2,7-3[8:1],,
{8}5xh[4:1],,1,1h[4:1],,3,3h[4:1],,
{8}8,7,1x/6x,,2/4,3,4,5/7,
{8}6,5,1/4,2,3,4/8,7,6,
{8}1/5,2/6,3b/7b,,B2,B8,B4,B6,
{8}C1,,E8,B8,,E4,B4,,
{8}B6,B3,E6,E4,,,,,
{1},
{1},
{1},
E
